<?xml version="1.0" standalone="no"?>
<!DOCTYPE svg PUBLIC "-//W3C//DTD SVG 1.1//EN" "http://www.w3.org/Graphics/SVG/1.1/DTD/svg11.dtd" >
<svg xmlns="http://www.w3.org/2000/svg" xmlns:xlink="http://www.w3.org/1999/xlink" version="1.1">
<metadata></metadata>
<defs>
<font id="psl_kandamodern_probold" horiz-adv-x="0" >
<font-face units-per-em="2048" ascent="1638" descent="-410" />
<missing-glyph horiz-adv-x="491" />
<glyph unicode=" "  horiz-adv-x="491" />
<glyph unicode="&#x09;" horiz-adv-x="491" />
<glyph unicode="&#xa0;" horiz-adv-x="491" />
<glyph unicode="!" horiz-adv-x="344" d="M98 0v150h148v-150h-148zM109 664v301h127v-301l-35 -416h-56z" />
<glyph unicode="&#x22;" horiz-adv-x="563" d="M145 616v349h91v-349h-91zM330 616v349h90v-349h-90z" />
<glyph unicode="#" horiz-adv-x="737" d="M45 279v92h141l29 202h-135v93h147l37 276h92l-39 -276h164l39 276h92l-39 -276h119v-93h-131l-26 -202h118v-92h-133l-39 -279h-90l39 279h-166l-37 -279h-92l37 279h-127zM279 371h163l27 202h-164z" />
<glyph unicode="$" horiz-adv-x="858" d="M49 317h119q-4 -95 59 -155.5t158 -73.5v363q-49 12 -76 19.5t-64.5 20.5t-58 25.5t-44.5 33t-36 44.5t-20 57.5t-8 75.5q0 114 88 182t219 76v133h90v-133q272 -24 293 -303h-117q-9 79 -54 131.5t-122 65.5v-330q136 -35 179 -53q115 -49 144 -151q11 -41 11 -91 q0 -121 -95.5 -192.5t-238.5 -81.5v-134h-90v134q-94 8 -169 46.5t-122 114t-45 176.5zM205 727q0 -39 8.5 -63.5t35 -41.5t52.5 -25.5t84 -23.5v308q-81 -8 -130.5 -47.5t-49.5 -106.5zM475 88q96 6 152.5 48.5t56.5 119.5q0 33 -10 57.5t-25 41t-44.5 30.5t-57 23 t-72.5 20v-340z" />
<glyph unicode="%" horiz-adv-x="1325" d="M123 694q0 112 51 188t158 76q60 0 104 -21.5t68 -59.5t34.5 -81.5t10.5 -95.5q0 -54 -11.5 -102.5t-35 -90.5t-66 -66.5t-98.5 -24.5q-215 0 -215 278zM221 692q0 -200 115 -200q43 0 71 33.5t37 78t7 94.5q-2 38 -7 66.5t-16.5 57.5t-35.5 45t-58 16q-40 0 -67 -31 t-36.5 -71.5t-9.5 -88.5zM250 -31l711 1008h112l-711 -1008h-112zM778 264q0 112 51 188t158 76q60 0 104 -21.5t68 -59.5t34.5 -81.5t10.5 -95.5q0 -54 -11.5 -102.5t-35 -90.5t-66 -66.5t-98.5 -24.5q-215 0 -215 278zM877 262q0 -201 114 -201q43 0 71 33.5t37 78t7 95.5 q-2 38 -7 66.5t-16.5 57.5t-35.5 45t-58 16q-40 0 -66.5 -31t-36 -71.5t-9.5 -88.5z" />
<glyph unicode="&#x26;" horiz-adv-x="835" d="M45 250q0 52 15 94.5t47 77t68 61t91 58.5q-53 66 -79.5 116.5t-26.5 106.5q0 87 60 144t157 57q100 0 162.5 -56t62.5 -145q0 -80 -47.5 -136t-130.5 -108l174 -209q25 70 31 144h106q-12 -134 -61 -234l182 -221h-149l-97 119q-114 -137 -262 -137q-61 0 -114 15 t-96 46t-68 84t-25 123zM164 250q0 -70 56 -117t132 -47q116 0 193 115l-215 264q-44 -24 -65 -38t-49 -40.5t-40 -59.5t-12 -77zM272 764q0 -37 16.5 -67.5t51.5 -75.5l22 -25q63 38 94 75t31 91q1 44 -30 73t-76 29q-47 0 -78 -28.5t-31 -71.5z" />
<glyph unicode="'" horiz-adv-x="366" d="M139 616v349h90v-349h-90z" />
<glyph unicode="(" horiz-adv-x="344" d="M61 367q1 182 59.5 343t149.5 277h88q-94 -154 -135.5 -294t-42.5 -326t40.5 -331t135.5 -306h-84q-100 156 -156 307t-55 330z" />
<glyph unicode=")" horiz-adv-x="344" d="M-16 987h88q91 -116 149.5 -277t59.5 -343q1 -179 -55 -330t-156 -307h-84q94 161 135.5 306t40.5 331t-42.5 326t-135.5 294z" />
<glyph unicode="*" horiz-adv-x="475" d="M33 801l24 65l144 -53v152h71v-152l144 53l26 -65l-145 -51l88 -123l-55 -41l-94 129l-86 -129l-62 41l88 123z" />
<glyph unicode="+" horiz-adv-x="747" d="M61 295v92h267v264h92v-264h266v-92h-266v-268h-92v268h-267z" />
<glyph unicode="," horiz-adv-x="329" d="M74 70q0 33 25 59.5t61 26.5q45 0 71.5 -30.5t26.5 -78.5q0 -47 -30.5 -99.5t-92.5 -92.5l-47 32q69 44 94 107q-14 -4 -28 -4q-31 0 -55.5 23.5t-24.5 56.5z" />
<glyph unicode="-" horiz-adv-x="516" d="M66 322v108h385v-108h-385z" />
<glyph unicode="." horiz-adv-x="329" d="M82 72q0 34 24 59t58 25t59 -25t25 -59t-25 -58t-59 -24t-58 23.5t-24 58.5z" />
<glyph unicode="/" horiz-adv-x="442" d="M-25 -23l392 1010h98l-393 -1010h-97z" />
<glyph unicode="0" horiz-adv-x="747" d="M53 494q0 77 8 141t29.5 125.5t56.5 103.5t92.5 68t133.5 26q66 0 118 -18t86 -52t57 -75t35 -95t16.5 -103.5t4.5 -108.5q0 -71 -2.5 -123t-10.5 -110t-22 -98.5t-38 -79t-57.5 -62t-82 -37.5t-110.5 -14q-75 0 -131 25.5t-90.5 68.5t-55.5 110t-29 140t-8 168zM176 492 q0 -49 1.5 -86t6 -82t12.5 -77.5t22.5 -65t35 -52.5t50 -32.5t67.5 -12.5q44 0 77 14.5t54.5 45t35 65.5t20 87t9 98t2.5 110q0 55 -3.5 98.5t-15 94t-31.5 84.5t-57 56.5t-87 22.5q-44 0 -78 -15.5t-55 -44.5t-35 -62.5t-20 -79t-8.5 -82.5t-2.5 -84z" />
<glyph unicode="1" horiz-adv-x="747" d="M115 686v92q245 0 276 180h88v-958h-117v686h-247z" />
<glyph unicode="2" horiz-adv-x="747" d="M31 0q1 48 11 90t24.5 75t40.5 65.5t50 56t63 52t69 47.5t78 48q95 58 136.5 115.5t41.5 144.5q0 63 -54 112.5t-133 49.5q-87 0 -140 -71t-44 -167h-117q-7 161 80.5 250.5t237.5 89.5q121 0 205 -72.5t84 -185.5q0 -75 -20.5 -133.5t-67.5 -104.5t-80 -69t-100 -63 q-17 -10 -25 -15q-198 -118 -209 -215h495v-100h-626z" />
<glyph unicode="3" horiz-adv-x="747" d="M39 297h113q0 -102 58.5 -156.5t151.5 -54.5q83 0 142 51.5t59 128.5q0 111 -78.5 156t-191.5 29v98q41 -3 77.5 1.5t73.5 20t58.5 52.5t21.5 92q0 61 -46.5 101t-115.5 40q-98 0 -143 -59.5t-45 -147.5h-115q0 132 75 220.5t224 88.5q129 0 209 -67.5t80 -177.5 q0 -136 -137 -203q91 -21 134.5 -85.5t43.5 -158.5q0 -130 -96 -206t-230 -76q-155 0 -239 82.5t-84 230.5z" />
<glyph unicode="4" horiz-adv-x="747" d="M35 225v111l438 622h100v-632h121v-101h-121v-225h-116v225h-422zM137 326h320v454z" />
<glyph unicode="5" horiz-adv-x="747" d="M45 258h115q0 -74 59.5 -123t138.5 -49q96 0 150.5 62.5t54.5 170.5q0 91 -58.5 151t-160.5 60q-48 0 -91.5 -23t-62.5 -46l-20 -23l-98 6l88 498h473v-100h-385l-53 -279q39 38 80.5 53t99.5 15q148 0 229.5 -89.5t81.5 -215.5q0 -153 -91.5 -247.5t-232.5 -94.5 q-143 0 -230 76.5t-87 197.5z" />
<glyph unicode="6" horiz-adv-x="747" d="M49 469q0 75 11 144t36.5 132.5t63.5 110t97 74.5t132 28q137 0 206 -67.5t75 -177.5h-111q-14 61 -49.5 102t-112.5 41q-54 0 -95.5 -22.5t-66 -56.5t-40.5 -85t-23 -97t-10 -103q46 65 103 93.5t141 28.5q139 0 216.5 -86.5t77.5 -222.5q0 -140 -84.5 -230.5 t-240.5 -90.5q-174 0 -250 123t-76 362zM186 305q0 -88 52 -153.5t135 -65.5q100 0 151 62t51 155t-51.5 152t-148.5 59q-81 0 -135 -62t-54 -147z" />
<glyph unicode="7" horiz-adv-x="747" d="M66 834v108h620v-98q-168 -174 -267.5 -391.5t-99.5 -452.5h-129q0 215 115.5 454t261.5 380h-501z" />
<glyph unicode="8" horiz-adv-x="747" d="M49 262q0 89 43 155t117 101q-57 32 -90 85t-33 114q0 100 83.5 170.5t201.5 70.5q117 0 199.5 -70.5t82.5 -170.5q0 -61 -32.5 -112.5t-88.5 -84.5q77 -35 121.5 -99t44.5 -151q0 -118 -94.5 -204t-228.5 -86q-137 0 -231.5 82t-94.5 200zM176 272q0 -82 52.5 -133 t148.5 -51q84 0 142.5 52.5t58.5 131.5q0 77 -58.5 130t-142.5 53t-142.5 -53t-58.5 -130zM207 705q0 -63 49 -108.5t117 -45.5t117 45.5t49 108.5t-49 108t-115 45q-69 0 -118.5 -45t-49.5 -108z" />
<glyph unicode="9" horiz-adv-x="747" d="M41 637q0 140 85 230.5t241 90.5q174 0 249.5 -123t75.5 -362q0 -75 -11 -144t-36.5 -132.5t-63.5 -110t-97 -74.5t-132 -28q-137 0 -205 67.5t-75 177.5h110q14 -61 49.5 -102t112.5 -41q54 0 95.5 22.5t66 57t41 85.5t23.5 97t10 103q-46 -65 -103 -94t-141 -29 q-139 0 -217 86.5t-78 222.5zM166 639q0 -92 52 -151.5t149 -59.5q81 0 134.5 62t53.5 147q0 88 -51.5 153.5t-134.5 65.5q-100 0 -151.5 -62t-51.5 -155z" />
<glyph unicode=":" horiz-adv-x="329" d="M82 72q0 34 24 59t58 25t59 -25t25 -59t-25 -58t-59 -24t-58 23.5t-24 58.5zM82 578q0 34 24 59t58 25t59 -25t25 -59t-25 -58t-59 -24t-58 23.5t-24 58.5z" />
<glyph unicode=";" horiz-adv-x="329" d="M74 70q0 33 25 59.5t61 26.5q45 0 71.5 -30.5t26.5 -78.5q0 -47 -30.5 -99.5t-92.5 -92.5l-47 32q69 44 94 107q-14 -4 -28 -4q-31 0 -55.5 23.5t-24.5 56.5zM82 578q0 34 24 59t58 25t59 -25t25 -59t-25 -58t-59 -24t-58 23.5t-24 58.5z" />
<glyph unicode="&#x3c;" horiz-adv-x="794" d="M59 301v82l676 311v-92l-565 -260l565 -260v-92z" />
<glyph unicode="=" horiz-adv-x="747" d="M61 164v92h625v-92h-625zM61 426v92h625v-92h-625z" />
<glyph unicode="&#x3e;" horiz-adv-x="794" d="M59 -10v92l566 260l-566 260v92l676 -311v-82z" />
<glyph unicode="?" horiz-adv-x="747" d="M70 664q-2 140 79.5 231.5t217.5 91.5q126 0 203 -71.5t77 -198.5q0 -75 -29 -125.5t-83 -104.5q-40 -37 -59 -57.5t-38.5 -59.5t-19.5 -81v-45h-113v55q0 39 9.5 72.5t31.5 63.5t36 45t44 44q2 3 18 19.5t20 21t17 20.5t17 24t12.5 24.5t11.5 29.5t5 30.5t1 35.5 q-5 74 -48 116t-113 42q-90 0 -137.5 -62t-47.5 -161h-112zM276 78q0 37 24.5 61.5t61.5 24.5t62 -24.5t25 -61.5q0 -38 -25 -63t-62 -25t-61.5 25t-24.5 63z" />
<glyph unicode="@" horiz-adv-x="1081" d="M57 496q0 148 70.5 261.5t184 171.5t247.5 58q206 0 332.5 -124t126.5 -312q0 -58 -24.5 -123t-66.5 -120.5t-105 -91.5t-132 -36q-31 0 -50 25.5t-26 64.5q-88 -94 -184 -94q-103 0 -156 106.5t-2 241.5q92 250 310 250q29 0 53.5 -11.5t39 -27.5t25.5 -32t15 -27l4 -12 l31 86h86l-123 -424q-8 -31 1.5 -50.5t28 -20t37.5 10.5q51 35 98.5 117.5t47.5 169.5q0 152 -104 255t-265 103q-79 0 -153 -28t-133.5 -79t-95.5 -132.5t-36 -179.5q0 -198 116 -319.5t298 -121.5q115 0 192 37t158 127h80q-53 -105 -172.5 -171.5t-261.5 -66.5 q-216 0 -354 138.5t-138 380.5zM356 429.5q-4 -41.5 4 -78t34 -60t67 -23.5q58 0 108 46.5t82 123.5q40 101 13 172.5t-95 71.5q-126 0 -194 -172q-15 -39 -19 -80.5z" />
<glyph unicode="A" horiz-adv-x="858" d="M-10 0l370 965h138l370 -965h-139l-102 291h-400l-106 -291h-131zM268 399h318l-158 451z" />
<glyph unicode="B" horiz-adv-x="907" d="M102 0v965h420q78 0 136 -21t89.5 -55.5t46.5 -72.5t15 -79q0 -163 -139 -227q89 -30 133.5 -85.5t44.5 -154.5q0 -121 -84.5 -195.5t-212.5 -74.5h-449zM229 109h260q52 0 88 6t72.5 23t55 54.5t18.5 94.5q0 48 -19.5 80t-57.5 47.5t-80 21.5t-101 6h-236v-333zM229 551 h236q38 0 67.5 3t59 12.5t48.5 25.5t30.5 43t11.5 63q0 37 -8 65t-25 44.5t-34.5 27t-45.5 15t-48 5.5t-52 1h-240v-305z" />
<glyph unicode="C" horiz-adv-x="956" d="M55 498q0 133 52.5 243.5t154.5 178t234 67.5q166 0 274.5 -86t122.5 -227h-125q-18 93 -87 150t-185 57q-101 0 -174 -57.5t-106.5 -143.5t-33.5 -186q0 -80 17.5 -150.5t53 -129t96 -92.5t138.5 -34q261 0 289 277h125q-21 -183 -127.5 -286.5t-284.5 -103.5 q-206 0 -320 141t-114 382z" />
<glyph unicode="D" horiz-adv-x="933" d="M102 0v965h338q113 0 200 -35t139 -97t78 -140.5t26 -170.5q0 -522 -447 -522h-334zM229 109h193q83 0 144.5 24t96.5 61t56.5 94t28 111t6.5 123q0 95 -24 161.5t-71 103.5t-108 53t-143 16h-179v-747z" />
<glyph unicode="E" horiz-adv-x="808" d="M102 0v965h654v-109h-527v-305h492v-109h-492v-333h531v-109h-658z" />
<glyph unicode="F" horiz-adv-x="759" d="M102 0v965h623v-109h-496v-305h435v-109h-435v-442h-127z" />
<glyph unicode="G" horiz-adv-x="1005" d="M55 494q0 98 31 187t87.5 157t143 108.5t189.5 40.5q348 0 407 -317h-122q-19 54 -38 88.5t-50 64.5t-79 44t-116 14q-103 0 -179.5 -58t-112.5 -145.5t-36 -190.5q0 -172 88.5 -285.5t235.5 -113.5q139 0 223 82.5t84 228.5h-303v109h416v-508h-80l-31 121 q-69 -77 -144 -110.5t-177 -33.5q-193 0 -315 147.5t-122 369.5z" />
<glyph unicode="H" horiz-adv-x="956" d="M102 0v965h127v-414h498v414h125v-965h-125v442h-498v-442h-127z" />
<glyph unicode="I" horiz-adv-x="344" d="M109 0v965h127v-965h-127z" />
<glyph unicode="J" horiz-adv-x="688" d="M31 317h123q-1 -19 -1 -37q0 -196 154 -196q27 0 49.5 5.5t37.5 17t26.5 23t18 30.5t11 32t6 34t2 31t0 29t-0.5 21v658h127v-707q0 -147 -74.5 -214t-202.5 -67q-150 0 -216 82q-61 75 -61 229q0 14 1 29z" />
<glyph unicode="K" horiz-adv-x="882" d="M102 0v965h127v-482l482 482h159l-397 -390l414 -575h-158l-342 487l-158 -149v-338h-127z" />
<glyph unicode="L" horiz-adv-x="737" d="M102 0v965h127v-856h502v-109h-629z" />
<glyph unicode="M" horiz-adv-x="1153" d="M106 0v965h173l296 -811l299 811h175v-965h-119v811l-299 -811h-107l-299 819v-819h-119z" />
<glyph unicode="N" horiz-adv-x="956" d="M102 0v965h131l504 -783v783h117v-965h-133l-500 778v-778h-119z" />
<glyph unicode="O" horiz-adv-x="1007" d="M49 485q0 215 127 360.5t330 145.5q130 0 234 -68t161 -183t57 -255q0 -215 -126 -361.5t-326 -146.5q-138 0 -243 68.5t-159.5 183.5t-54.5 256zM176 483q0 -171 90 -285t240 -114t240 114t90 285q0 170 -91 285t-239 115q-151 0 -240.5 -114.5t-89.5 -285.5z" />
<glyph unicode="P" horiz-adv-x="858" d="M102 0v965h377q160 0 245 -69.5t85 -207.5q0 -83 -26.5 -143.5t-71 -91.5t-92 -44.5t-101.5 -13.5h-289v-395h-127zM229 504h228q50 0 85 6t69.5 23.5t52.5 54.5t18 94q0 86 -57 131t-156 45h-240v-354z" />
<glyph unicode="Q" horiz-adv-x="1007" d="M49 485q0 215 127 360.5t330 145.5q130 0 234 -68t161 -183t57 -255q0 -235 -145 -383l127 -102l-66 -84l-147 121q-97 -60 -221 -60q-138 0 -243 68.5t-159.5 183.5t-54.5 256zM176 483q0 -171 90 -285t240 -114q63 0 129 27l-105 86l66 79l127 -102q113 116 113 309 q0 170 -91 285t-239 115q-151 0 -240.5 -114.5t-89.5 -285.5z" />
<glyph unicode="R" horiz-adv-x="907" d="M102 0v965h445q76 0 139 -23.5t106.5 -79.5t43.5 -137q0 -101 -37.5 -165t-128.5 -95q77 -16 105.5 -60t35.5 -120q1 -17 4.5 -66.5t6 -70t8.5 -55t16.5 -56t25.5 -37.5h-141q-16 16 -22 45.5t-8.5 94t-6.5 98.5q-10 96 -51 135t-125 39h-289v-412h-127zM229 520h256 q109 0 167.5 39t58.5 133t-53.5 129t-165.5 35h-263v-336z" />
<glyph unicode="S" horiz-adv-x="858" d="M49 317h119v-10q0 -101 74 -159q78 -62 190 -62q115 0 183.5 42t68.5 128q0 36 -12 62.5t-31 43.5t-53.5 31t-69 23.5t-87.5 22.5q-7 1 -10.5 2t-9 2.5t-10.5 2.5q-43 10 -62.5 15.5t-55 15.5t-52.5 17.5t-43.5 21t-39 26.5t-29 32t-23.5 41t-12.5 50.5t-5.5 61.5 q0 81 48.5 141.5t125 89.5t168.5 29q327 0 348 -305h-117q-11 92 -68 146.5t-157 54.5q-98 0 -159.5 -40.5t-61.5 -115.5q0 -18 2.5 -32.5t5 -26t11.5 -22t14 -17t20.5 -14t24 -12t31 -11t34.5 -10t42 -11.5t46 -12q21 -6 67 -17.5t68.5 -17.5t61 -19.5t58.5 -26.5t46.5 -35 t39.5 -47.5t22.5 -61.5t9.5 -80q0 -87 -54 -151.5t-137.5 -95t-183.5 -30.5q-104 0 -190 36t-142 115q-54 76 -53 181v8z" />
<glyph unicode="T" horiz-adv-x="759" d="M2 856v109h756v-109h-314v-856h-127v856h-315z" />
<glyph unicode="U" horiz-adv-x="956" d="M98 334v631h127v-625q0 -112 64 -183t180 -71q120 0 192 61.5t72 194.5v623h125v-619q0 -183 -102.5 -277t-284.5 -94q-169 0 -271 93t-102 266z" />
<glyph unicode="V" horiz-adv-x="808" d="M-2 965h137l271 -836l274 836h133l-336 -965h-143z" />
<glyph unicode="W" horiz-adv-x="1226" d="M16 965h129l187 -807l213 807h135l213 -811l192 811h125l-252 -965h-131l-219 811l-219 -811h-131z" />
<glyph unicode="X" horiz-adv-x="808" d="M0 0l330 496l-312 469h150l235 -377l250 377h140l-316 -469l334 -496h-154l-251 399l-263 -399h-143z" />
<glyph unicode="Y" horiz-adv-x="858" d="M2 965h150l284 -459l279 459h141l-362 -572v-393h-127v393z" />
<glyph unicode="Z" horiz-adv-x="808" d="M31 0v109l590 747h-547v109h690v-109l-588 -747h604v-109h-749z" />
<glyph unicode="[" horiz-adv-x="344" d="M96 -268v1255h248v-90h-143v-1073h143v-92h-248z" />
<glyph unicode="\" horiz-adv-x="442" d="M-25 987h97l393 -1010h-98z" />
<glyph unicode="]" horiz-adv-x="344" d="M0 -176h143v1073h-143v90h248v-1255h-248v92z" />
<glyph unicode="^" horiz-adv-x="794" d="M66 356l288 586h86l289 -586h-92l-242 488l-235 -488h-94z" />
<glyph unicode="_" horiz-adv-x="747" d="M0 -100h748v-93h-748v93z" />
<glyph unicode="`" horiz-adv-x="294" d="M-31 987h146l114 -192h-86z" />
<glyph unicode="a" horiz-adv-x="710" d="M51 182q0 40 9 71.5t29 53.5t40.5 37t54.5 26t58.5 16.5t64.5 12.5q19 4 50.5 8.5t46 7.5t36 8t31 11t20.5 16t15 23.5t4 32.5q0 108 -154 108q-90 0 -127.5 -34t-40.5 -99h-114q2 103 73.5 167.5t208.5 64.5q269 0 269 -183v-393q0 -38 13.5 -47.5t53.5 2.5v-92 q-25 -12 -55 -15.5t-58.5 3t-46.5 33.5q-15 22 -15 56q0 7 1 15q-62 -61 -114.5 -84.5t-129.5 -23.5q-113 0 -168 53t-55 145zM166 188q4 -54 39.5 -78t109.5 -24q73 0 133 47t60 117v108q-24 -12 -51.5 -20.5t-43 -11t-53.5 -7t-49 -6.5q-65 -9 -107 -41q-38 -29 -38 -75 v-9z" />
<glyph unicode="b" horiz-adv-x="784" d="M88 0v965h113v-367q65 117 223 117q142 0 228.5 -101t86.5 -247q0 -93 -22 -164t-54.5 -112t-76.5 -66.5t-82 -34t-76 -8.5q-44 0 -83.5 11.5t-64.5 28.5t-44 34t-27 28l-8 12v-96h-113zM197 350q0 -112 53.5 -188t167.5 -76q71 0 118 43t64.5 103.5t17.5 134.5 q0 99 -54.5 172t-145.5 73q-113 0 -167 -73t-54 -189z" />
<glyph unicode="c" horiz-adv-x="710" d="M49 352q0 159 85 261t237 102q138 0 213 -67.5t80 -172.5h-113q-12 65 -57 102t-121 37q-102 0 -154.5 -75t-52.5 -185q0 -52 10.5 -97.5t33 -85t63 -62.5t94.5 -23q81 0 130 46.5t58 123.5h115q-19 -129 -96.5 -200.5t-202.5 -71.5q-155 0 -238.5 98.5t-83.5 269.5z" />
<glyph unicode="d" horiz-adv-x="784" d="M45 367q0 146 86.5 247t228.5 101q70 0 130.5 -29t93.5 -88v367h112v-965h-112v96q-2 -5 -7 -12.5t-23.5 -27t-42 -34.5t-65 -27.5t-90.5 -12.5q-37 0 -76 10t-82 37t-76 68.5t-55 111.5t-22 158zM166 367q0 -75 17.5 -135t64.5 -103t119 -43q114 0 167.5 76t53.5 188 q0 116 -53.5 189t-165.5 73q-91 0 -147 -73t-56 -172z" />
<glyph unicode="e" horiz-adv-x="710" d="M47 338q0 162 84.5 269.5t243.5 107.5q102 0 175 -60t104 -149q27 -77 27 -163q0 -14 -1 -28h-514q-1 -10 -1 -19q0 -76 51 -139q57 -71 159 -71q155 0 182 135h111q-54 -237 -297 -237q-147 0 -235.5 100t-88.5 254zM168 416h391q0 85 -57 142.5t-140 57.5 q-81 0 -137.5 -59t-56.5 -141z" />
<glyph unicode="f" horiz-adv-x="391" d="M14 698h117v105q0 57 23.5 96.5t57 55.5t71.5 21q22 3 42 3q13 0 25 -1q29 -4 43 -11v-101q-24 7 -48.5 9t-48 -3t-38 -22.5t-14.5 -46.5v-105h131v-100h-131v-598h-113v598h-115z" />
<glyph unicode="g" horiz-adv-x="759" d="M49 356q0 93 33.5 173.5t103.5 133t164 52.5q154 0 219 -117v100h107v-651q0 -50 -8.5 -95t-30.5 -89t-55.5 -76t-87.5 -52t-123 -20q-131 0 -214 55t-83 152h112q1 -53 54.5 -84t130.5 -31q198 0 198 273l2 45q-32 -66 -89.5 -99.5t-121.5 -33.5q-66 0 -119.5 20 t-88.5 54.5t-58.5 81.5t-34 98.5t-10.5 109.5zM166 358q0 -51 10.5 -96t32.5 -84t61.5 -61.5t91.5 -22.5q97 0 149 79.5t52 186.5q0 117 -51 185.5t-156 68.5q-88 0 -139 -75t-51 -181z" />
<glyph unicode="h" horiz-adv-x="737" d="M84 0v965h113v-375q58 125 235 125q95 0 157 -59t62 -169v-487h-110v481q0 47 -34.5 90t-105.5 43q-92 0 -148 -56.5t-56 -158.5v-399h-113z" />
<glyph unicode="i" horiz-adv-x="294" d="M92 0v698h113v-698h-113zM92 825v140h113v-140h-113z" />
<glyph unicode="j" horiz-adv-x="294" d="M-18 -160q32 -6 56.5 -6t39 21.5t14.5 68.5v774h113v-792q0 -52 -17.5 -89.5t-43.5 -55.5t-57.5 -25.5t-58 -5.5t-46.5 10v100zM92 825v140h113v-140h-113z" />
<glyph unicode="k" horiz-adv-x="688" d="M92 0v965h113v-572l311 305h152l-273 -254l293 -444h-143l-236 365l-104 -101v-264h-113z" />
<glyph unicode="l" horiz-adv-x="294" d="M92 0v965h113v-965h-113z" />
<glyph unicode="m" horiz-adv-x="1130" d="M84 0v698h106v-102q82 119 228 119q68 0 117 -30t67 -89q76 119 232 119q101 0 157 -54.5t56 -146.5v-514h-113v442q0 91 -29 131.5t-96 40.5q-83 0 -134.5 -46.5t-51.5 -118.5v-449h-115v451q0 34 -4.5 59.5t-16 50.5t-37 39t-63.5 14q-51 0 -90.5 -21t-59.5 -52.5 t-30 -60t-10 -50.5v-430h-113z" />
<glyph unicode="n" horiz-adv-x="737" d="M84 0v698h106v-112q66 129 246 129q101 0 158 -65t57 -165v-485h-110v453q0 71 -31 116t-102 45q-93 0 -152 -53.5t-59 -157.5v-403h-113z" />
<glyph unicode="o" horiz-adv-x="759" d="M49 350q0 159 87.5 262t244.5 103q155 0 243.5 -103.5t88.5 -261.5t-88.5 -262t-243.5 -104q-159 0 -245.5 103t-86.5 263zM166 350q0 -115 57 -189.5t160 -74.5q95 0 153 75.5t58 188.5q0 114 -58 189t-157 75q-95 0 -154 -75.5t-59 -188.5z" />
<glyph unicode="p" horiz-adv-x="784" d="M88 -266v964h113v-96q2 5 6 12.5t22 27.5t41 35t65.5 27.5t92.5 12.5q35 0 71.5 -8.5t81 -34.5t77.5 -66t56 -112t23 -164q0 -148 -82.5 -248t-230.5 -100q-149 0 -223 116v-366h-113zM197 348q0 -116 53.5 -189t165.5 -73q91 0 146.5 73.5t55.5 172.5q0 74 -17.5 134.5 t-64.5 104t-118 43.5q-59 0 -103.5 -22.5t-69 -61t-36.5 -84.5t-12 -98z" />
<glyph unicode="q" horiz-adv-x="784" d="M49 344q0 89 22.5 158t55.5 108.5t76.5 64.5t80.5 33.5t72 8.5q46 0 87 -12t65.5 -28.5t42.5 -33.5t25 -29l8 -12v96h112v-964h-112v366q-59 -116 -224 -116q-99 0 -171 51.5t-106 131.5t-34 177zM166 332q0 -99 55 -172.5t146 -73.5q113 0 167 73t54 189q0 52 -12 98 t-36.5 84.5t-69 61t-103.5 22.5q-54 0 -94.5 -24.5t-63 -66t-33 -89.5t-10.5 -102z" />
<glyph unicode="r" horiz-adv-x="442" d="M80 0v698h106v-151q17 45 49.5 83t88.5 64q44 20 92 20q13 0 26 -1v-121q-14 1 -27 1q-87 0 -149 -57q-72 -66 -73 -194v-342h-113z" />
<glyph unicode="s" horiz-adv-x="661" d="M41 221h113q0 -48 27.5 -79.5t66 -43.5t86.5 -12q170 0 170 104q0 22 -10 39.5t-24 28.5t-42.5 21.5t-51 16.5t-63.5 15q-46 10 -75.5 18t-68 24.5t-60.5 36t-38 51.5t-16 73q0 97 77.5 149t182.5 52q139 0 207 -58.5t68 -160.5h-111q0 43 -28 71t-62 37.5t-72 9.5 q-141 0 -141 -94q0 -54 87 -82q20 -7 65 -17l10 -3q15 -4 44.5 -11t44 -11t39.5 -11.5t38 -13t33 -16t30 -20.5t22.5 -25t18.5 -32.5t10.5 -39.5t4.5 -48q0 -67 -43.5 -115.5t-106.5 -69.5t-135 -21q-145 0 -221 65.5t-76 171.5z" />
<glyph unicode="t" horiz-adv-x="417" d="M12 598v100h117v211h113v-211h135v-100h-135v-430q0 -40 12.5 -54t48.5 -14h74v-100h-84q-94 0 -129 30.5t-35 125.5v442h-117z" />
<glyph unicode="u" horiz-adv-x="737" d="M84 233v465h113v-473q0 -60 36 -99.5t101 -39.5q96 0 151.5 57t55.5 162v393h110v-698h-104v113q-76 -129 -236 -129q-103 0 -165 60t-62 189z" />
<glyph unicode="v" horiz-adv-x="661" d="M18 698h127l195 -583l186 583h119l-252 -698h-119z" />
<glyph unicode="w" horiz-adv-x="1003" d="M23 698h124l154 -577l141 577h123l146 -571l153 571h117l-217 -698h-119l-141 559l-139 -559h-121z" />
<glyph unicode="x" horiz-adv-x="686" d="M12 0l256 369l-237 329h143l166 -241l172 241h133l-235 -321l266 -377h-144l-192 289l-190 -289h-138z" />
<glyph unicode="y" horiz-adv-x="661" d="M10 698h129l201 -575l192 575h119l-299 -794q-19 -48 -31 -73.5t-38.5 -55.5t-61.5 -45q-31 -12 -61 -12h-3q-32 1 -57 8l-24 6v108q2 -1 6.5 -3.5t17.5 -6.5t25 -6.5t28.5 -1t30.5 7.5q39 16 58 68l43 106z" />
<glyph unicode="z" horiz-adv-x="636" d="M31 0v88l411 510h-387v100h533v-75l-422 -523h440v-100h-575z" />
<glyph unicode="{" horiz-adv-x="442" d="M63 313v93q4 0 11.5 1t26.5 10.5t33 25.5t26 51.5t12 83.5v227q0 82 43.5 132t114.5 50h80v-80h-58q-40 0 -56.5 -30.5t-16.5 -90.5v-237q0 -45 -12 -81t-29 -55t-34.5 -31.5t-29.5 -15.5l-12 -4q5 -1 13 -3t28.5 -15.5t36 -33t28.5 -60t13 -92.5v-228q0 -5 -0.5 -12.5 t2 -27.5t8 -35.5t19.5 -28t34 -12.5h66v-82h-84q-54 0 -90 29.5t-50 71t-14 91.5v244q0 38 -11 67t-27 43.5t-32.5 23t-27.5 10.5z" />
<glyph unicode="|" horiz-adv-x="294" d="M102 -23v1010h91v-1010h-91z" />
<glyph unicode="}" horiz-adv-x="442" d="M33 -186h65q32 0 48 29t16 58v29v228q0 52 12.5 92t30 60.5t34.5 33t29 15.5l13 3q-5 1 -13 3.5t-28 15.5t-35.5 31.5t-28 55t-12.5 81.5v237q0 121 -74 121h-57v80h80q71 0 114 -50t43 -132v-227q0 -48 11 -83.5t27 -51.5t32.5 -25.5t27.5 -10.5l11 -1v-93 q-4 0 -11.5 -1.5t-26.5 -10.5t-33 -22.5t-26 -43t-12 -67.5v-244q0 -80 -37 -136t-114 -56h-86v82z" />
<glyph unicode="~" horiz-adv-x="794" d="M92 309q60 117 164 117q52 0 147 -43q11 -5 36 -17.5t38.5 -19t32 -12.5t31.5 -6q24 0 46.5 17.5t35.5 36t32 50.5l47 -67q-26 -38 -42.5 -58t-49.5 -39.5t-71 -19.5q-59 0 -136 45q-33 17 -47.5 24.5t-46 17t-59.5 9.5q-68 0 -111 -102z" />
<glyph unicode="&#xa2;" horiz-adv-x="757" />
<glyph unicode="&#xa3;" horiz-adv-x="854" />
<glyph unicode="&#xa4;" horiz-adv-x="839" d="M8 164l148 145q-62 83 -62 193q0 114 62 188l-148 150l76 71l145 -145q80 59 193 59q119 0 188 -59l150 145l71 -71l-145 -150q59 -80 59 -188q0 -113 -59 -193l145 -145l-71 -76l-150 148q-31 -25 -84 -43q-55 -19 -104 -19q-110 0 -193 62l-145 -148zM197 502 q0 -95 63 -164q65 -68 162 -68q93 0 158 68q63 63 63 164q0 94 -63 160.5t-158 66.5q-96 0 -160 -67q-65 -74 -65 -160z" />
<glyph unicode="&#xa5;" horiz-adv-x="1042" />
<glyph unicode="&#xa9;" horiz-adv-x="1134" d="M61 483q0 137 67.5 253t184 183.5t254.5 67.5t254.5 -67.5t184 -183.5t67.5 -253q0 -138 -67.5 -254.5t-184 -184t-254.5 -67.5t-254.5 67.5t-184 184t-67.5 254.5zM127 483q0 -187 127.5 -316.5t314.5 -129.5q186 0 312.5 130t126.5 316q0 188 -126 317.5t-313 129.5 q-190 0 -316 -128.5t-126 -318.5zM256 483q0 140 87.5 229t227.5 89q112 0 192.5 -60.5t94.5 -175.5h-90q-17 75 -70 115.5t-125 40.5q-106 0 -165.5 -66t-59.5 -170q0 -103 64 -173t168 -70q75 0 127 45t61 116h90q-9 -110 -87 -175.5t-189 -65.5q-147 0 -236.5 91 t-89.5 230z" />
<glyph unicode="&#xab;" horiz-adv-x="636" d="M57 365l295 364l74 -41l-217 -323l217 -322l-74 -41zM324 365l157 286l76 -35l-94 -251l94 -250l-76 -37z" />
<glyph unicode="&#xac;" horiz-adv-x="747" d="M61 297v90h605v-268h-82v178h-523z" />
<glyph unicode="&#xad;" horiz-adv-x="747" d="M61 295v92h625v-92h-625z" />
<glyph unicode="&#xae;" horiz-adv-x="1134" d="M61 483q0 137 67.5 253t184 183.5t254.5 67.5t254.5 -67.5t184 -183.5t67.5 -253q0 -138 -67.5 -254.5t-184 -184t-254.5 -67.5t-254.5 67.5t-184 184t-67.5 254.5zM127 483q0 -187 127.5 -316.5t314.5 -129.5q186 0 312.5 130t126.5 316q0 188 -126 317.5t-313 129.5 q-190 0 -316 -128.5t-126 -318.5zM352 184v596h246q111 0 163 -43t52 -129q0 -65 -38.5 -105.5t-102.5 -56.5l182 -262h-104l-181 256h-125v-256h-92zM444 504h107q30 0 41.5 0.5t37 3t37.5 9t27 18t21 31t6 46.5q0 105 -131 105h-146v-213z" />
<glyph unicode="&#xb0;" horiz-adv-x="540" d="M66 713q0 83 58 142.5t142 59.5q86 0 145.5 -58.5t59.5 -143.5t-59.5 -144t-145.5 -59q-82 0 -141 59t-59 144zM121 713q0 -60 42.5 -104t102.5 -44q62 0 105 43q45 45 45 105t-44 102.5t-106 42.5q-63 0 -104 -41t-41 -104z" />
<glyph unicode="&#xb6;" horiz-adv-x="727" d="M0 858q0 153 94 229q91 66 248 66h389v-41h-102v-1356h-62v1356h-145v-1356h-55v805q-168 0 -263 62q-104 73 -104 235z" />
<glyph unicode="&#xb7;" horiz-adv-x="337" d="M96 449q0 31 21 51t53 20q30 0 51 -21.5t21 -49.5q0 -31 -21.5 -52.5t-50.5 -21.5q-32 0 -53 21t-21 53z" />
<glyph unicode="&#xbb;" horiz-adv-x="636" d="M82 115l94 250l-94 251l76 35l157 -286l-157 -287zM213 43l217 322l-217 323l74 41l295 -364l-295 -363z" />
<glyph unicode="&#xbc;" horiz-adv-x="1327" />
<glyph unicode="&#xbd;" horiz-adv-x="1357" />
<glyph unicode="&#xbe;" horiz-adv-x="1327" />
<glyph unicode="&#xd7;" horiz-adv-x="747" d="M61 94l246 248l-244 244l64 65l246 -243l245 245l66 -65l-246 -246l248 -248l-65 -65l-248 247l-246 -245z" />
<glyph unicode="&#xf7;" horiz-adv-x="747" d="M61 295v92h625v-92h-625zM291 90q0 32 25 57t57 25t57 -25t25 -57q0 -31 -25 -56.5t-57 -25.5q-31 0 -56.5 25.5t-25.5 56.5zM291 592q0 32 25 57t57 25t57 -25t25 -57q0 -31 -25 -56.5t-57 -25.5q-31 0 -56.5 25.5t-25.5 56.5z" />
<glyph unicode="&#xe00;" horiz-adv-x="204" />
<glyph unicode="&#xe01;" horiz-adv-x="778" d="M39 600q7 103 108 168.5t236 65.5q67 0 125.5 -15.5t106 -46t75 -83t27.5 -120.5v-569h-115v557q0 89 -59 131.5t-162 42.5q-85 0 -148 -34.5t-71 -78.5q5 -5 25.5 -20.5t31 -30t10.5 -32.5q0 -23 -26.5 -57t-26.5 -64v-414h-115v422q0 27 32 57.5t32 48.5q0 17 -43 47z " />
<glyph unicode="&#xe02;" horiz-adv-x="696" d="M49 721v98h105q92 0 133 -29.5t41 -95.5q0 -41 -24 -69t-52 -41t-52 -33.5t-24 -48.5v-258q0 -156 172 -156t172 156v575h115v-590q0 -67 -25.5 -116.5t-69 -76t-91 -38.5t-101.5 -12q-53 0 -100.5 12t-91 38.5t-69.5 76t-26 116.5v289q0 31 15.5 55.5t38 38t45 25t38 23 t15.5 24.5q0 37 -63 37h-101z" />
<glyph unicode="&#xe03;" horiz-adv-x="706" d="M8 760l76 65l59 -47l60 47q67 4 101 -30.5t34 -98.5q0 -44 -24 -77.5t-52 -50.5t-52 -41t-24 -52v-231q0 -156 172 -156t172 156v575h115v-590q0 -67 -25.5 -116.5t-69 -76t-91 -38.5t-101.5 -12q-53 0 -100.5 12t-91 38.5t-69 76t-25.5 116.5v267q0 32 16 57.5 t38.5 40.5t45.5 28t39 29t16 35q0 22 -10 35l-8 12l-84 -67z" />
<glyph unicode="&#xe04;" horiz-adv-x="798" d="M61 0v569q0 67 30 120t80 83.5t108 46t120 15.5q64 0 122.5 -15.5t107.5 -46t78.5 -83t29.5 -120.5v-569h-114v557q0 87 -63.5 130.5t-160.5 43.5t-160 -43.5t-63 -130.5v-84h250v-102h-250v-371h-115z" />
<glyph unicode="&#xe05;" horiz-adv-x="798" d="M61 0v596q0 95 64 160.5t170 77.5l104 -84l107 84q104 -12 167.5 -77.5t63.5 -160.5v-596h-114v586q0 114 -88 139l-134 -111l-137 111q-88 -25 -88 -139v-113h252v-104h-252v-369h-115z" />
<glyph unicode="&#xe06;" horiz-adv-x="808" d="M8 760l76 65l59 -47l60 47q67 4 101 -30.5t34 -98.5q0 -44 -24 -77.5t-52 -50.5t-52 -41t-24 -52v-143q0 -35 20.5 -76.5t56 -78.5t89 -62t111.5 -25q77 0 123.5 40t46.5 122v567h115v-575q0 -132 -74.5 -194t-200.5 -62q-160 0 -287 127v-115h-114v496q0 32 16 57.5 t38.5 40.5t45.5 28t39 29t16 35q0 22 -10 35l-8 12l-84 -67z" />
<glyph unicode="&#xe07;" horiz-adv-x="712" d="M0 666l96 77l201 -641h25q82 0 139.5 58t79.5 146.5t14 189.5q-11 134 -89 193t-220 36v102q187 28 296.5 -56t127.5 -245q9 -56 4 -117t-16 -119.5t-40.5 -111t-69.5 -92t-103.5 -63t-141.5 -23.5h-94z" />
<glyph unicode="&#xe08;" horiz-adv-x="735" d="M-12 592q8 101 103.5 171.5t238.5 70.5q164 0 262 -96t98 -275q0 -236 -124.5 -357.5t-325.5 -109.5l-117 453l-41 63h145l103 -408q109 12 177 107.5t68 251.5q0 126 -66.5 197t-178.5 71q-90 0 -151 -35.5t-79 -103.5h-112z" />
<glyph unicode="&#xe09;" horiz-adv-x="788" d="M37 614q19 76 74 127.5t122.5 72t145.5 20.5q96 0 172 -26t126 -87.5t50 -151.5v-569h-115v94q-120 -106 -278 -106q-262 0 -262 254v192l-25 62h139v-242q0 -91 40.5 -128.5t117.5 -37.5q113 0 190.5 61t77.5 134v274q0 89 -65 131.5t-168 42.5q-177 0 -221 -117h-121z " />
<glyph unicode="&#xe0a;" horiz-adv-x="761" d="M61 0v819h115v-717l162 -4q110 -5 188 52t78 169q0 92 -59 149.5t-150 57.5h-108v103h108q84 0 137 46.5t46 143.5h112q12 -80 -25.5 -147t-105.5 -97q65 -26 112.5 -93t47.5 -160q0 -162 -104 -244t-271 -82z" />
<glyph unicode="&#xe0b;" horiz-adv-x="780" d="M-23 760l76 65l60 -47l59 47q67 4 101 -30.5t34 -98.5q0 -43 -17 -76t-38 -50t-38 -41.5t-17 -53.5v-373h161q113 0 190 54t77 163q0 92 -58.5 149.5t-150.5 57.5h-88v103h88q81 0 135 46.5t47 143.5h113q16 -78 -24 -146t-107 -98q68 -27 113.5 -92.5t45.5 -160.5 q0 -161 -103.5 -241.5t-270.5 -80.5h-283v496q0 32 12 57t28.5 40t33.5 28.5t29 29.5t12 35q0 20 -11 35l-8 12l-84 -67z" />
<glyph unicode="&#xe0c;" horiz-adv-x="1257" d="M39 600q7 103 108 168.5t236 65.5q67 0 125.5 -15.5t106 -46t75 -83t27.5 -120.5v-286q0 -70 63.5 -132.5t151.5 -62.5q149 0 149 164v567h115v-577q0 -72 -20.5 -124t-57.5 -79t-79.5 -39t-94.5 -12q-69 0 -129.5 27.5t-97.5 74.5v-90h-115v557q0 89 -59 131.5 t-162 42.5q-85 0 -148 -34.5t-71 -78.5q5 -5 25.5 -20.5t31 -30t10.5 -32.5q0 -23 -26.5 -57t-26.5 -64v-312h127v-102h-242v422q0 27 32 57.5t32 48.5q0 17 -43 47z" />
<glyph unicode="&#xe0d;" horiz-adv-x="1257" d="M39 600q7 103 108 168.5t236 65.5q67 0 125.5 -15.5t106 -46t75 -83t27.5 -120.5v-325q0 -86 43 -119t119 -33q82 0 142 48.5t60 135.5v543h115v-776q0 -64 -25 -113.5t-68.5 -78.5t-96 -43.5t-113.5 -14.5h-291v105h291q81 0 134.5 39t53.5 102v35q-16 -16 -40.5 -32.5 t-76 -34t-108.5 -17.5q-50 0 -93 11.5t-80.5 37t-59 73.5t-21.5 113v332q0 89 -59 131.5t-162 42.5q-85 0 -148 -34.5t-71 -78.5q5 -5 25.5 -20.5t31 -30t10.5 -32.5q0 -23 -26.5 -57t-26.5 -64v-312h127v-102h-242v422q0 27 32 57.5t32 48.5q0 17 -43 47z" />
<glyph unicode="&#xe0e;" horiz-adv-x="798" d="M10 0v104h72v318q0 27 31.5 57.5t31.5 48.5q0 17 -43 47l-43 25q7 103 107 168.5t237 65.5q67 0 125.5 -15.5t106 -46t75 -83t27.5 -120.5v-876h-114l-121 119l-137 -119h-248v104h200l185 152l121 -103v711q0 89 -59 131.5t-163 42.5q-86 0 -148.5 -34t-70.5 -79 q5 -5 26 -20.5t31.5 -30t10.5 -32.5q0 -23 -26.5 -57t-26.5 -64v-414h-187z" />
<glyph unicode="&#xe0f;" horiz-adv-x="798" d="M10 0v104h72v318q0 27 31.5 57.5t31.5 48.5q0 17 -43 47l-43 25q7 103 107 168.5t237 65.5q67 0 125.5 -15.5t106 -46t75 -83t27.5 -120.5v-876h-114l-86 100l-105 -119l-108 119l-93 -100h-186v104h135l146 148l104 -111l109 111l84 -90v702q0 89 -59 131.5t-163 42.5 q-86 0 -148.5 -34t-70.5 -79q5 -5 26 -20.5t31.5 -30t10.5 -32.5q0 -23 -26.5 -57t-26.5 -64v-414h-187z" />
<glyph unicode="&#xe10;" horiz-adv-x="735" d="M-12 592q8 101 103.5 171.5t238.5 70.5q84 0 151 -27q25 11 42.5 31.5t17.5 42.5h125q0 -73 -97 -125q121 -100 121 -293q0 -236 -124.5 -357.5t-325.5 -109.5l-117 453l-41 63h145l103 -408q109 12 177 107.5t68 251.5q0 126 -66.5 197t-178.5 71q-90 0 -151 -35.5 t-79 -103.5h-112zM4 -203h119l129 111l104 -94l107 94l78 -76v127h114v-266h-114l-78 84l-107 -99l-106 99l-92 -84h-154v104z" />
<glyph unicode="&#xe11;" horiz-adv-x="819" d="M-12 760l75 65l60 -47l59 47q67 4 101 -30.5t34 -98.5q0 -35 -12.5 -63t-30 -46.5t-35 -34.5t-30 -35.5t-12.5 -41.5v-174q17 54 61 147.5t84 161.5q63 107 116.5 164t114.5 57q97 0 141 -60t44 -153v-618h-115v600q0 51 -17.5 90t-56.5 39q-51 0 -143 -172 q-76 -139 -152.5 -321t-76.5 -228v-8h-115v492q0 39 19.5 69t43 45t43 35.5t19.5 44.5q0 22 -10 35l-9 12l-84 -67z" />
<glyph unicode="&#xe12;" horiz-adv-x="1288" d="M31 414q0 169 95 278t255 139l139 -124l113 112h115v-536q0 -70 63.5 -132.5t151.5 -62.5q149 0 149 164v567h115v-577q0 -254 -252 -254q-69 0 -129.5 27.5t-97.5 74.5v-90h-115v676l-111 -115l-174 154q-91 -20 -147 -103t-56 -196q0 -169 97 -260t247 -39v-113 q-114 -23 -199.5 -0.5t-143 82.5t-86.5 144t-29 184z" />
<glyph unicode="&#xe13;" horiz-adv-x="1257" d="M39 600q7 103 108 168.5t236 65.5q67 0 125.5 -15.5t106 -46t75 -83t27.5 -120.5v-317q0 -164 149 -164q88 0 151.5 62.5t63.5 132.5v536h115v-819h-115v90q-37 -47 -97.5 -74.5t-129.5 -27.5q-252 0 -252 254v315q0 89 -59 131.5t-162 42.5q-85 0 -148 -34.5t-71 -78.5 q5 -5 25.5 -20.5t31 -30t10.5 -32.5q0 -23 -26.5 -57t-26.5 -64v-312h127v-102h-242v422q0 27 32 57.5t32 48.5q0 17 -43 47z" />
<glyph unicode="&#xe14;" horiz-adv-x="804" d="M31 408q0 173 111 292t278 119h323v-819h-114v717h-217q-115 0 -191 -93t-76 -216q0 -169 94 -256t246 -35v-113q-114 -23 -199 -2.5t-141.5 79t-85 142t-28.5 185.5z" />
<glyph unicode="&#xe15;" horiz-adv-x="808" d="M31 414q0 169 95 278t255 139l129 -124l123 112h115v-819h-115v682l-123 -121l-162 154q-91 -20 -147 -103t-56 -196q0 -169 97 -260t247 -39v-113q-114 -23 -199.5 -0.5t-143 82.5t-86.5 144t-29 184z" />
<glyph unicode="&#xe16;" horiz-adv-x="778" d="M39 600q7 103 108 168.5t236 65.5q67 0 125.5 -15.5t106 -46t75 -83t27.5 -120.5v-569h-115v557q0 89 -59 131.5t-162 42.5q-85 0 -148 -34.5t-71 -78.5q5 -5 25.5 -20.5t31 -30t10.5 -32.5q0 -23 -26.5 -57t-26.5 -64v-312h127v-102h-242v422q0 27 32 57.5t32 48.5 q0 17 -43 47z" />
<glyph unicode="&#xe17;" horiz-adv-x="798" d="M61 0v819h115v-114q126 126 287 126q123 0 198.5 -63t75.5 -193v-575h-114v567q0 83 -45.5 122.5t-124.5 39.5q-76 0 -142 -42t-100.5 -97t-34.5 -103v-487h-115z" />
<glyph unicode="&#xe18;" horiz-adv-x="761" d="M41 633q4 93 96.5 147t227.5 54q68 0 125 -12t104.5 -37.5t77 -69t35.5 -101.5h-117q-6 33 -29 57t-57 36.5t-68.5 18t-70.5 5.5q-84 0 -146.5 -27t-62.5 -71q0 -53 122 -71q26 -3 144 -13q60 -4 111 -20t94.5 -47t68.5 -83t25 -120q0 -67 -17.5 -117t-46 -80.5 t-70.5 -49t-85 -25.5t-96 -7h-345v426h115v-324h213q49 0 84 6t67.5 23.5t49 53.5t16.5 91q0 36 -11 64t-28 45t-45 29t-53 18t-61 12q-15 1 -50 4.5t-52.5 5t-50 6t-50.5 8.5t-44.5 12t-41.5 17t-32.5 22.5t-26.5 29.5t-14.5 37.5t-4.5 46.5z" />
<glyph unicode="&#xe19;" horiz-adv-x="798" d="M61 244v575h115v-567q0 -82 46.5 -122t123.5 -40q76 0 142 42t100.5 97t34.5 103v487h114v-819h-114v115q-127 -127 -287 -127q-126 0 -200.5 62t-74.5 194z" />
<glyph unicode="&#xe1a;" horiz-adv-x="798" d="M61 248v571h115v-557q0 -88 64 -131t159 -43t159.5 43t64.5 131v557h114v-571q0 -67 -30 -119.5t-80 -82.5t-108 -45t-120 -15t-120 15t-108 45t-80 82.5t-30 119.5z" />
<glyph unicode="&#xe1b;" horiz-adv-x="798" d="M61 248v571h115v-557q0 -88 64 -131t159 -43t159.5 43t64.5 131v742h114v-756q0 -67 -30 -119.5t-80 -82.5t-108 -45t-120 -15t-120 15t-108 45t-80 82.5t-30 119.5z" />
<glyph unicode="&#xe1c;" horiz-adv-x="1073" d="M10 819h260v-102h-112l141 -512l188 614h99l188 -614l172 614h117l-238 -819h-98l-190 612l-191 -612h-98z" />
<glyph unicode="&#xe1d;" horiz-adv-x="1073" d="M10 819h260v-102h-112l141 -512l188 614h99l188 -614l223 799h117l-289 -1004h-98l-190 612l-191 -612h-98z" />
<glyph unicode="&#xe1e;" horiz-adv-x="1073" d="M10 819h117l172 -614l188 614h99l188 -614l172 614h117l-238 -819h-98l-190 612l-191 -612h-98z" />
<glyph unicode="&#xe1f;" horiz-adv-x="1073" d="M10 819h117l172 -614l188 614h99l188 -614l223 799h117l-289 -1004h-98l-190 612l-191 -612h-98z" />
<glyph unicode="&#xe20;" horiz-adv-x="798" d="M10 0v104h72v318q0 27 31.5 57.5t31.5 48.5q0 17 -43 47l-43 25q7 103 107 168.5t237 65.5q67 0 125.5 -15.5t106 -46t75 -83t27.5 -120.5v-569h-114v557q0 89 -59 131.5t-163 42.5q-86 0 -148.5 -34t-70.5 -79q5 -5 26 -20.5t31.5 -30t10.5 -32.5q0 -23 -26.5 -57 t-26.5 -64v-414h-187z" />
<glyph unicode="&#xe21;" horiz-adv-x="798" d="M61 0v819h115v-487q0 -48 34.5 -103t100.5 -97t142 -42q79 0 124.5 39.5t45.5 122.5v567h114v-575q0 -131 -75 -193.5t-199 -62.5q-89 0 -163 35.5t-124 91.5v-115h-115z" />
<glyph unicode="&#xe22;" horiz-adv-x="808" d="M35 250q0 86 52 143.5t101 63.5q-46 6 -89.5 50t-43.5 118q0 65 38.5 112.5t105.5 71.5q37 12 95 15t105 -5v-104q-96 18 -162.5 -5.5t-66.5 -86.5q0 -105 180 -105h283v301h115v-819l-365 -6q-348 -9 -348 256zM152 254q0 -169 254 -158l227 6v314h-260 q-109 0 -165 -43.5t-56 -118.5z" />
<glyph unicode="&#xe23;" horiz-adv-x="731" d="M20 291h117q0 -203 221 -203q49 0 87 7.5t71.5 25t51.5 52t18 83.5q0 33 -11 57.5t-27 39.5t-44.5 26t-53.5 16t-63 11q-24 4 -70.5 10.5t-72 11t-62.5 14t-58 22t-42.5 32t-31 48.5t-9.5 66q0 100 92 162t221 62q85 0 157 -23.5t123 -80t54 -138.5h-115 q-7 68 -73.5 103.5t-149.5 35.5q-75 0 -134.5 -31.5t-59.5 -83.5q0 -29 19.5 -48.5t58.5 -31t75.5 -16.5t91.5 -10q51 -5 89.5 -13.5t80 -26.5t68 -44t44 -69t17.5 -99q0 -63 -19.5 -111.5t-51.5 -78.5t-77.5 -49t-92.5 -26t-101 -7q-331 0 -338 305z" />
<glyph unicode="&#xe24;" horiz-adv-x="778" d="M39 600q7 103 108 168.5t236 65.5q67 0 125.5 -15.5t106 -46t75 -83t27.5 -120.5v-815h-115v811v-8q0 89 -59 131.5t-162 42.5q-85 0 -148 -34.5t-71 -78.5q5 -5 25.5 -20.5t31 -30t10.5 -32.5q0 -23 -26.5 -57t-26.5 -64v-312h127v-102h-242v422q0 27 32 57.5t32 48.5 q0 17 -43 47z" />
<glyph unicode="&#xe25;" horiz-adv-x="794" d="M31 233q0 214 254 254q22 3 64 6.5t73.5 5.5t69 9.5t62 18.5t41.5 32t17 49q0 58 -60 90.5t-151 32.5q-85 0 -153.5 -37.5t-75.5 -101.5h-117q19 123 117 182.5t231 59.5q63 0 118 -12t104.5 -39t78.5 -76.5t29 -116.5v-590h-115v451q-13 -8 -29 -14.5t-30 -11.5 t-36.5 -9.5t-34.5 -7t-40 -5.5t-37.5 -4t-41 -4t-37.5 -4q-187 -18 -187 -158q0 -58 28.5 -91.5t77 -41t93.5 -4.5t96 15v-109q-55 -7 -99 -9t-94 1.5t-86 19t-67 42t-47 71.5t-16 106z" />
<glyph unicode="&#xe26;" horiz-adv-x="798" d="M10 0v104h72v318q0 27 31.5 57.5t31.5 48.5q0 17 -43 47l-43 25q7 103 107 168.5t237 65.5q67 0 125.5 -15.5t106 -46t75 -83t27.5 -120.5v-815h-114v803q0 89 -59 131.5t-163 42.5q-86 0 -148.5 -34t-70.5 -79q5 -5 26 -20.5t31.5 -30t10.5 -32.5q0 -23 -26.5 -57 t-26.5 -64v-414h-187z" />
<glyph unicode="&#xe27;" horiz-adv-x="759" d="M31 264h121q21 -88 81 -132t140 -44q112 0 176.5 77.5t64.5 244.5q0 321 -241 321q-80 0 -140 -44t-81 -132h-121q26 129 112 204t230 75q60 0 112 -14t97.5 -46t77.5 -80t50.5 -120.5t18.5 -163.5t-18.5 -163.5t-50.5 -120.5t-77.5 -80t-97.5 -46t-112 -14 q-144 0 -230 74.5t-112 203.5z" />
<glyph unicode="&#xe28;" horiz-adv-x="798" d="M61 0v569q0 67 30 120t80 83.5t108 46t120 15.5q55 0 133 -19q50 16 50 66h125q0 -39 -19.5 -64.5t-54.5 -48.5q104 -68 104 -199v-569h-114v557q0 87 -63.5 130.5t-160.5 43.5t-160 -43.5t-63 -130.5v-84h250v-102h-250v-371h-115z" />
<glyph unicode="&#xe29;" horiz-adv-x="808" d="M61 248v571h115v-557q0 -88 64 -131t159 -43t159.5 43t64.5 131v160h-254v158h114v-56h140v295h114v-295h62v-102h-62v-174q0 -67 -30 -119.5t-80 -82.5t-108 -45t-120 -15t-120 15t-108 45t-80 82.5t-30 119.5z" />
<glyph unicode="&#xe2a;" horiz-adv-x="794" d="M31 233q0 214 254 254q22 3 64 6.5t73.5 5.5t69 9.5t62 18.5t41.5 32t17 49q0 58 -60 90.5t-151 32.5q-85 0 -153.5 -37.5t-75.5 -101.5h-117q19 123 117 182.5t231 59.5q65 0 138 -17q45 17 45 64h125q0 -26 -11.5 -48t-23.5 -33.5t-33 -27.5q90 -69 90 -182v-590h-115 v451q-13 -8 -29 -14.5t-30 -11.5t-36.5 -9.5t-34.5 -7t-40 -5.5t-37.5 -4t-41 -4t-37.5 -4q-187 -18 -187 -158q0 -184 295 -122v-109q-55 -7 -99 -9t-94 1.5t-86 19t-67 42t-47 71.5t-16 106z" />
<glyph unicode="&#xe2b;" horiz-adv-x="798" d="M61 0v819h115v-262q122 129 287 129q123 0 198.5 -62.5t75.5 -191.5v-432h-114v422q0 162 -170 162q-105 0 -191 -80t-86 -160v-344h-115zM307 717v102h389v-102h-389z" />
<glyph unicode="&#xe2c;" horiz-adv-x="1073" d="M10 819h117l172 -614l188 614h99l188 -614l119 424q15 60 -20 100.5t-101 40.5h-74v102h115q84 0 127.5 30t56.5 102h117q-22 -95 -65.5 -142.5t-135.5 -54.5q60 -24 84 -76.5t2 -124.5l-174 -606h-98l-190 612l-191 -612h-98z" />
<glyph unicode="&#xe2d;" horiz-adv-x="843" d="M31 410q0 59 12 125h268v-105h-166v-20q0 -160 74.5 -241t202.5 -81q127 0 201.5 81t74.5 241t-74.5 240.5t-201.5 80.5q-179 0 -238 -139h-127q33 104 124 173t241 69q83 0 153 -25t124 -75t84 -133t30 -191t-30 -191t-84 -133t-124 -75t-153 -25t-152.5 25t-123.5 75 t-84.5 133t-30.5 191z" />
<glyph unicode="&#xe2e;" horiz-adv-x="843" d="M31 410q0 59 12 125h268v-105h-166v-20q0 -160 74.5 -241t202.5 -81q127 0 201.5 81t74.5 241t-74.5 240.5t-201.5 80.5q-179 0 -238 -139h-127q33 104 124 173t241 69q75 0 139 -21q19 8 33 27t14 41h125q0 -37 -23.5 -68t-52.5 -45q156 -107 156 -358q0 -108 -30 -191 t-84 -133t-124 -75t-153 -25t-152.5 25t-123.5 75t-84.5 133t-30.5 191z" />
<glyph unicode="&#xe2f;" horiz-adv-x="722" d="M31 655q0 56 36 97t88 58t111 17.5t105 -18.5v-113q-44 27 -98 31.5t-92 -16t-38 -58.5q0 -42 36.5 -65t84.5 -23q115 0 188.5 71t94.5 187h115v-823h-113v598q-41 -52 -119 -93.5t-168 -41.5q-92 0 -161.5 50t-69.5 142z" />
<glyph unicode="&#xe30;" horiz-adv-x="389" d="M51 102v160h115v-69h178v-91h-293zM51 557v160h115v-70h178v-90h-293z" />
<glyph unicode="&#xe31;" d="M-393 922v159h114v-69h449v-90h-563z" />
<glyph unicode="&#xe32;" horiz-adv-x="419" d="M10 713v104q64 13 126 7t111.5 -24.5t80 -60.5t30.5 -102v-637h-114v614q0 68 -66.5 92.5t-167.5 6.5z" />
<glyph unicode="&#xe33;" horiz-adv-x="419" d="M-238 1020q0 46 33 76t84 30t84 -30t33 -76t-33 -76.5t-84 -30.5t-84 30.5t-33 76.5zM-170 1020q0 -19 14.5 -32t34.5 -13t34.5 13t14.5 32t-14.5 32t-34.5 13t-34.5 -13t-14.5 -32zM10 713v104q64 13 126 7t111.5 -24.5t80 -60.5t30.5 -102v-637h-114v614 q0 68 -66.5 92.5t-167.5 6.5z" />
<glyph unicode="&#xe34;" d="M-666 922v90h605v-90h-605z" />
<glyph unicode="&#xe35;" d="M-666 922v90h490v104h115v-194h-605z" />
<glyph unicode="&#xe36;" d="M-666 922v90h430v12q0 42 33.5 72t85.5 30q50 0 82.5 -30t32.5 -72t-32.5 -72t-82.5 -30h-549zM-168 1024q0 -20 13.5 -32.5t33.5 -12.5q23 0 37 12.5t14 32.5q0 19 -14 31t-37 12q-20 0 -33.5 -12t-13.5 -31z" />
<glyph unicode="&#xe37;" d="M-666 922v90h314v104h114v-104h62v104h115v-194h-605z" />
<glyph unicode="&#xe38;" d="M-238 -82h177v-246h-115v156h-62v90z" />
<glyph unicode="&#xe39;" d="M-467 -82h156v-125q0 -53 67 -53q68 0 68 53v125h115v-131q0 -64 -50.5 -99.5t-132.5 -35.5q-86 0 -134 35t-48 100v41h-41v90z" />
<glyph unicode="&#xe3a;" d="M-203 -166q0 35 24.5 59.5t59.5 24.5t59.5 -24.5t24.5 -59.5t-24.5 -59.5t-59.5 -24.5t-59.5 24.5t-24.5 59.5z" />
<glyph unicode="&#xe3f;" horiz-adv-x="907" d="M102 0v965h308v153h90v-153h22q78 0 136 -21t89.5 -55.5t46.5 -72.5t15 -79q0 -163 -139 -227q89 -30 133.5 -85.5t44.5 -154.5q0 -121 -84.5 -195.5t-212.5 -74.5h-51v-154h-90v154h-308zM229 109h181v333h-181v-333zM229 551h181v305h-181v-305zM500 109q39 1 68 4.5 t60 14.5t50.5 29.5t32 51.5t12.5 78t-16.5 75.5t-48.5 47t-69.5 23.5t-88.5 9v-333zM500 551q86 5 134 37t48 110q0 50 -14.5 82.5t-43 48t-56.5 21t-68 6.5v-305z" />
<glyph unicode="&#xe40;" horiz-adv-x="319" d="M102 0v819h115v-819h-115z" />
<glyph unicode="&#xe41;" horiz-adv-x="557" d="M102 0v819h115v-819h-115zM340 0v819h115v-819h-115z" />
<glyph unicode="&#xe42;" horiz-adv-x="360" d="M29 1157q0 48 44 81t128 32l272 -4v-103l-252 4q-18 0 -29 -0.5t-24 -3t-19 -8t-6 -14.5q0 -18 15 -34t32.5 -28.5t32.5 -38.5t15 -61v-979h-115v971q0 27 -9.5 47.5t-23.5 34l-28 27t-23.5 33t-9.5 44.5z" />
<glyph unicode="&#xe43;" horiz-adv-x="360" d="M-98 1083q-8 90 52 148.5t167 58.5q103 0 158 -42t55 -115q0 -24 -10 -43.5t-24 -33t-28 -28t-24 -35.5t-10 -47v-946h-115v954q0 32 9.5 55.5t23.5 37t28 24.5t23.5 25t9.5 32q0 60 -92 60q-58 0 -84 -28.5t-23 -76.5h-116z" />
<glyph unicode="&#xe44;" horiz-adv-x="360" d="M-162 1196l86 72l99 -58l73 43h49q147 0 150 -98q1 -29 -28 -66.5t-29 -66.5v-1022h-115v1028q0 27 14.5 47.5t29.5 35t15 26.5q0 14 -45 14h-24l-88 -53z" />
<glyph unicode="&#xe45;" horiz-adv-x="419" d="M10 713v104q64 13 126 7t111.5 -24.5t80 -60.5t30.5 -102v-883h-114v860q0 68 -66.5 92.5t-167.5 6.5z" />
<glyph unicode="&#xe46;" horiz-adv-x="727" d="M31 610q0 88 77 148.5t199 60.5l125 -108l119 108h115v-1065h-115v926l-119 -115l-168 150q-49 -5 -83 -33t-34 -72q0 -54 46.5 -77t107.5 -13v-108q-123 -8 -196.5 44t-73.5 154z" />
<glyph unicode="&#xe47;" d="M-690 1049q0 66 54.5 108.5t150.5 42.5h395v-90h-395q-109 0 -109 -61q0 -11 5 -21t9 -14l5 -4h81l175 73l196 -79v-95l-194 82l-162 -69h-142q-69 42 -69 127z" />
<glyph unicode="&#xe48;" d="M-176 1178v153h115v-153h-115z" />
<glyph unicode="&#xe49;" d="M-348 1260v81h63q105 0 105 -81h219v-82h-303v34q0 48 -49 48h-35z" />
<glyph unicode="&#xe4a;" d="M-393 1178v86q0 58 38 89t99 31h12l80 -49l80 49h12q62 0 100 -31.5t38 -88.5v-4h86v-82h-172v77q0 50 -46 50h-14l-86 -54l-88 54h-8q-23 0 -35 -14t-10 -36v-4h55v-73h-141z" />
<glyph unicode="&#xe4b;" d="M-254 1255v68h88v78h94v-78h88v-68h-88v-77h-94v77h-88z" />
<glyph unicode="&#xe4c;" d="M-258 1114v41q0 59 38.5 93t96.5 34h123v-92h-90q-29 0 -47.5 -16t-18.5 -41v-19h-102z" />
<glyph unicode="&#xe4d;" d="M-238 1020q0 46 33 76t84 30t84 -30t33 -76t-33 -76.5t-84 -30.5t-84 30.5t-33 76.5zM-170 1020q0 -19 14.5 -32t34.5 -13t34.5 13t14.5 32t-14.5 32t-34.5 13t-34.5 -13t-14.5 -32z" />
<glyph unicode="&#xe4e;" d="M-504 1032q-1 40 24.5 74.5t65.5 54.5q35 21 82 25q-43 21 -43 74q0 41 36 82.5t93 64.5q94 37 281 31v-101q-70 5 -136.5 2t-114.5 -25t-48 -57q0 -14 8.5 -23t28 -12.5t33 -4t40.5 -0.5h11v-95q-97 12 -174.5 -11t-77.5 -67q0 -28 49 -28t117 33l49 -82 q-102 -54 -197 -45q-57 6 -91 37.5t-36 72.5z" />
<glyph unicode="&#xe4f;" horiz-adv-x="962" d="M61 410q0 173 123.5 296t296.5 123t296.5 -123t123.5 -296t-123.5 -296.5t-296.5 -123.5t-296.5 123.5t-123.5 296.5zM123 410q0 -148 105 -253.5t253 -105.5t253.5 105.5t105.5 253.5t-105.5 253t-253.5 105t-253 -105t-105 -253zM225 410q0 106 75 181t181 75t181 -75 t75 -181t-75 -181t-181 -75t-181 75t-75 181z" />
<glyph unicode="&#xe50;" horiz-adv-x="774" d="M41 307q0 135 96 227.5t250 92.5t250 -92.5t96 -227.5t-96 -227t-250 -92t-250 92t-96 227zM150 307q0 -93 65 -156t170 -63t170.5 63t65.5 156t-65.5 156t-170.5 63t-170 -63t-65 -156z" />
<glyph unicode="&#xe51;" horiz-adv-x="823" d="M41 328q0 134 103.5 216.5t258.5 82.5q173 0 276 -85t103 -231q0 -79 -36.5 -148.5t-98 -118.5t-137.5 -82t-158 -46l-51 90q152 21 259.5 105.5t107.5 199.5q0 97 -72.5 156t-189.5 59q-108 0 -179 -55.5t-71 -142.5q0 -53 32 -94.5t84 -51.5q-30 34 -30 94t46.5 104 t112.5 44t113 -44t47 -104q0 -86 -75.5 -144t-184.5 -58q-115 0 -187.5 73t-72.5 181zM336 274q0 -28 18.5 -46.5t46.5 -18.5t47 18.5t19 46.5t-19 47t-47 19t-46.5 -19t-18.5 -47z" />
<glyph unicode="&#xe52;" horiz-adv-x="1114" d="M-55 739l51 99q84 -9 132 -47.5t48 -104.5v-487q0 -40 22 -68.5t62 -28.5h592q40 0 62 28.5t22 68.5v227q0 48 -27 74t-78 26q-39 0 -68.5 -22t-29.5 -55v-271h-115v273q0 36 -35 55.5t-81 19.5q-56 0 -92.5 -24t-36.5 -72q10 2 30 2q62 0 105 -39t43 -96t-43 -96 t-105 -39q-61 0 -103 38.5t-42 96.5v129q0 94 71 148.5t173 54.5q108 0 176 -62q56 62 160 62q96 0 154.5 -51.5t58.5 -141.5v-248q0 -82 -53.5 -135t-139.5 -53h-604q-86 0 -139.5 53t-53.5 135v471q0 72 -116 80zM350 297q0 -23 15.5 -39t37.5 -16q23 0 39.5 16t16.5 39 q0 22 -16.5 38.5t-39.5 16.5q-22 0 -37.5 -16.5t-15.5 -38.5z" />
<glyph unicode="&#xe53;" horiz-adv-x="956" d="M61 135v279q0 102 75 158.5t179 56.5q119 0 187 -72q68 72 170 72q99 0 161 -52t62 -149v-428h-115v418q0 53 -31 81.5t-79 28.5t-80.5 -24.5t-32.5 -65.5v-438h-115v442q0 42 -39 64t-88 22q-61 0 -100 -31t-39 -81v-142q24 7 45 7q66 0 113 -43t47 -103 q0 -62 -46.5 -103.5t-113.5 -41.5t-113.5 41.5t-46.5 103.5zM158 135q0 -29 18.5 -48t46.5 -19t47 19t19 48q0 27 -19.5 46.5t-46.5 19.5t-46 -19.5t-19 -46.5z" />
<glyph unicode="&#xe54;" horiz-adv-x="884" d="M41 303q-3 148 97.5 237t250.5 87q42 -1 109.5 -4.5t124.5 -1.5q63 3 104 71t43 152h115q2 -131 -68 -227.5t-186 -102.5q-48 -2 -124 2.5t-118 5.5q-101 2 -168.5 -58.5t-64.5 -160.5q3 -98 70 -154.5t157 -56.5t152 27q-9 2 -29 14t-44.5 32t-42.5 54t-18 72 q0 62 46 105.5t108 43.5q63 0 106.5 -42t43.5 -103q0 -37 -20 -69.5t-54 -51.5q27 -22 72.5 -30.5t91 -21t77.5 -44.5l-65 -84q-86 43 -162 43q-35 0 -116.5 -23.5t-153.5 -23.5q-137 0 -234 80t-100 233zM492 293q0 -25 18.5 -43.5t44.5 -18.5t43.5 18.5t17.5 43.5 q0 27 -17.5 46t-43.5 19t-44.5 -19.5t-18.5 -45.5z" />
<glyph unicode="&#xe55;" horiz-adv-x="884" d="M41 303q-3 121 66 203.5t182 109.5q-23 28 -23 70q0 65 48 108.5t122 43.5t122 -43.5t48 -108.5q0 -20 -7.5 -39t-14.5 -26h39q63 3 104 71t43 152h115q2 -131 -68 -227.5t-186 -102.5q-48 -2 -124 2.5t-118 5.5q-101 2 -168.5 -58.5t-64.5 -160.5q3 -98 70 -154.5 t157 -56.5t152 27q-9 2 -29 14t-44.5 32t-42.5 54t-18 72q0 62 46 105.5t108 43.5q63 0 106.5 -42t43.5 -103q0 -37 -20 -69.5t-54 -51.5q27 -22 72.5 -30.5t91 -21t77.5 -44.5l-65 -84q-86 43 -162 43q-35 0 -116.5 -23.5t-153.5 -23.5q-137 0 -234 80t-100 233zM365 690 q0 -28 21 -47.5t50 -19.5t50.5 19.5t21.5 47.5t-21.5 48t-50.5 20t-50 -20t-21 -48zM492 295q0 -26 18.5 -45t44.5 -19t44.5 19t18.5 45t-18.5 44.5t-44.5 18.5t-44.5 -18.5t-18.5 -44.5z" />
<glyph unicode="&#xe56;" horiz-adv-x="831" d="M-104 780l94 64q154 -118 203 -285q40 32 105 53t138 21q155 0 255 -89t100 -229q0 -141 -110 -235t-271 -94q-147 0 -239.5 75t-92.5 170q0 63 44.5 103.5t108.5 40.5t108 -40.5t44 -101.5q0 -81 -80 -120q38 -21 107 -21q110 0 188 62.5t78 160.5q0 92 -71.5 151.5 t-174.5 59.5q-79 0 -139 -30.5t-90 -77.5h-95q-32 210 -210 362zM168 236q0 -26 18.5 -45t44.5 -19t45 19t19 45t-19 44.5t-45 18.5t-44.5 -18.5t-18.5 -44.5z" />
<glyph unicode="&#xe57;" horiz-adv-x="1171" d="M61 135v279q0 102 75 158.5t179 56.5q119 0 187 -72q68 72 170 72q99 0 161 -52t62 -149v-309q46 24 81 84.5t38 142.5q2 48 -8 159.5t2 145.5q19 107 131 193l92 -68q-41 -23 -71 -64t-38 -81q-12 -42 -1.5 -143t7.5 -144q-12 -140 -85 -230.5t-179 -113.5h-84v418 q0 53 -31 81.5t-79 28.5t-80.5 -24.5t-32.5 -65.5v-438h-115v442q0 42 -39 64t-88 22q-61 0 -100 -31t-39 -81v-142q24 7 45 7q66 0 113 -43t47 -103q0 -62 -46.5 -103.5t-113.5 -41.5t-113.5 41.5t-46.5 103.5zM158 135q0 -29 18.5 -48t46.5 -19t47 19t19 48 q0 27 -19.5 46.5t-46.5 19.5t-46 -19.5t-19 -46.5z" />
<glyph unicode="&#xe58;" horiz-adv-x="901" d="M41 332q0 142 97.5 220.5t258.5 78.5q46 0 130.5 -10.5t127.5 -8.5q113 5 133 232h115q-6 -65 -19 -119.5t-38 -106t-67.5 -82t-98.5 -32.5q-52 -2 -142.5 10t-142.5 12q-107 0 -173 -51t-66 -143q0 -76 39.5 -134t91.5 -83l125 159q5 -7 13.5 -19t34 -42t49 -52.5 t52.5 -41.5t51 -19q28 0 56 31q-46 11 -77.5 46t-31.5 87q0 56 43 96.5t103 40.5q62 0 106.5 -39t44.5 -100q0 -98 -78.5 -184t-175.5 -86q-76 0 -188 112l-82 -116q-130 22 -210.5 114.5t-80.5 229.5zM649 264q0 -23 16.5 -39t39.5 -16t39 16t16 39t-16 39t-39 16 t-39.5 -16t-16.5 -39z" />
<glyph unicode="&#xe59;" horiz-adv-x="995" d="M41 319q0 137 95.5 229.5t234.5 92.5q157 0 250 -90q46 87 143 90q44 1 83 -13.5t60 -37.5q37 112 19 258h114q14 -119 -16.5 -231.5t-85.5 -182.5l-80 25q-3 30 -25 53t-61 23q-33 0 -54.5 -24.5t-21.5 -53.5q113 -170 146 -451l-115 -16q-8 58 -17.5 109t-24.5 108 t-34 103t-46 89t-59.5 72t-75.5 46.5t-93 17.5q-94 0 -157.5 -62t-63.5 -154q0 -64 28 -118.5t72 -83.5q-8 21 -8 51q0 61 47 105t113 44t112.5 -43.5t46.5 -105.5q0 -80 -61 -130t-150 -50q-99 0 -172.5 48t-108 122t-34.5 161zM342 168q0 -28 19 -48t47 -20q27 0 46 20 t19 48q0 27 -19 46t-46 19q-28 0 -47 -19.5t-19 -45.5z" />
<glyph unicode="&#xe5a;" horiz-adv-x="917" d="M31 655q0 56 36 97t88 58t111 17.5t105 -18.5v-113q-44 27 -98 31.5t-92 -16t-38 -58.5q0 -41 36 -64.5t85 -23.5q116 0 189 70t94 184h115v-819h-113v598q-41 -52 -119 -93.5t-168 -41.5q-92 0 -161.5 50t-69.5 142zM743 0v819h113v-819h-113z" />
<glyph unicode="&#xe5b;" horiz-adv-x="1392" d="M61 414q0 145 71.5 243.5t178.5 98.5q89 0 151 -72t62 -178q0 -84 -38.5 -137.5t-98.5 -53.5q-51 0 -87 40t-36 94t36.5 94.5t84.5 40.5q15 0 21 -2q-15 37 -40 58.5t-53 21.5q-64 0 -107.5 -71.5t-43.5 -184.5q0 -108 51 -173t131 -65q94 0 164 95t92 253q7 49 19 65.5 t38 16.5q21 0 49 -42.5t50 -106.5q6 35 9.5 52t9.5 39t14.5 31t19.5 9q19 0 45.5 -33.5t46.5 -85.5q19 82 45 82q38 0 94 -107q23 78 56 78q29 0 61 -63q15 31 47 28l111 -14q19 -1 36 -11.5t17 -19.5q0 -13 -18 -24t-37 -13l-103 -10q-18 -57 -49 -57q-21 0 -59 69 q-10 -37 -26.5 -64.5t-33.5 -27.5q-8 0 -16.5 7.5t-20 28t-16 30.5t-18.5 39q-30 -125 -66 -125q-8 0 -15.5 7.5t-15.5 22.5t-14 29t-15.5 37.5t-15.5 36.5q-13 -61 -37.5 -109.5t-46.5 -48.5q-20 0 -30.5 12t-16.5 41q-19 77 -26 99q-15 -64 -45.5 -126t-65.5 -100 q-98 -112 -227 -112q-120 0 -196.5 94t-76.5 244zM336 449q0 -26 15 -43t34 -17q21 0 35 17t14 43t-14.5 43.5t-34.5 17.5t-34.5 -17t-14.5 -44z" />
<glyph unicode="&#x2000;" horiz-adv-x="799" />
<glyph unicode="&#x2001;" horiz-adv-x="1599" />
<glyph unicode="&#x2002;" horiz-adv-x="799" />
<glyph unicode="&#x2003;" horiz-adv-x="1599" />
<glyph unicode="&#x2004;" horiz-adv-x="533" />
<glyph unicode="&#x2005;" horiz-adv-x="399" />
<glyph unicode="&#x2006;" horiz-adv-x="266" />
<glyph unicode="&#x2007;" horiz-adv-x="266" />
<glyph unicode="&#x2008;" horiz-adv-x="199" />
<glyph unicode="&#x2009;" horiz-adv-x="319" />
<glyph unicode="&#x200a;" horiz-adv-x="88" />
<glyph unicode="&#x200c;" />
<glyph unicode="&#x200d;" />
<glyph unicode="&#x2010;" horiz-adv-x="516" d="M66 322v108h385v-108h-385z" />
<glyph unicode="&#x2011;" horiz-adv-x="516" d="M66 322v108h385v-108h-385z" />
<glyph unicode="&#x2012;" horiz-adv-x="516" d="M66 322v108h385v-108h-385z" />
<glyph unicode="&#x2013;" horiz-adv-x="747" d="M61 295v92h625v-92h-625z" />
<glyph unicode="&#x2014;" horiz-adv-x="1495" d="M61 295v92h1371v-92h-1371z" />
<glyph unicode="&#x2018;" horiz-adv-x="387" d="M92 819q0 51 33.5 109t101.5 102l52 -37q-78 -49 -105 -116q17 4 33 4q35 0 61.5 -25t26.5 -61q0 -38 -27.5 -67.5t-66.5 -29.5q-50 0 -79.5 34t-29.5 87z" />
<glyph unicode="&#x2019;" horiz-adv-x="387" d="M92 934q0 38 27.5 67t66.5 29q50 0 79.5 -34t29.5 -87q0 -51 -33.5 -109t-101.5 -102l-51 37q76 47 104 117q-17 -4 -33 -4q-35 0 -61.5 25t-26.5 61z" />
<glyph unicode="&#x201c;" horiz-adv-x="659" d="M92 819q0 51 33.5 109t101.5 102l52 -37q-78 -49 -105 -116q17 4 33 4q35 0 61.5 -25t26.5 -61q0 -38 -27.5 -67.5t-66.5 -29.5q-50 0 -79.5 34t-29.5 87zM365 819q0 51 33.5 109t101.5 102l51 -37q-78 -49 -105 -116q17 4 33 4q35 0 61.5 -25t26.5 -61 q0 -38 -27.5 -67.5t-66.5 -29.5q-50 0 -79 33.5t-29 87.5z" />
<glyph unicode="&#x201d;" horiz-adv-x="659" d="M92 934q0 38 27.5 67t66.5 29q50 0 79.5 -34t29.5 -87q0 -51 -33.5 -109t-101.5 -102l-51 37q76 47 104 117q-17 -4 -33 -4q-35 0 -61.5 25t-26.5 61zM365 934q0 38 27.5 67t66.5 29q50 0 79 -33.5t29 -87.5q0 -51 -33.5 -109t-101.5 -102l-51 37q76 47 104 117 q-16 -4 -32 -4q-35 0 -61.5 25t-26.5 61z" />
<glyph unicode="&#x2022;" horiz-adv-x="737" d="M61 410q0 127 90 217t218 90q127 0 217 -89.5t90 -217.5t-90 -218t-217 -90t-217.5 90t-90.5 218z" />
<glyph unicode="&#x2026;" horiz-adv-x="989" d="M82 72q0 34 24 59t58 25t59 -25t25 -59t-25 -58t-59 -24t-58 23.5t-24 58.5zM412 72q0 34 24 59t58 25t59 -25t25 -59t-25 -58t-59 -24t-58 23.5t-24 58.5zM741 72q0 34 24 59t58 25t59 -25t25 -59t-25 -58t-59 -24t-58 23.5t-24 58.5z" />
<glyph unicode="&#x202f;" horiz-adv-x="319" />
<glyph unicode="&#x205f;" horiz-adv-x="399" />
<glyph unicode="&#x2122;" horiz-adv-x="1232" d="M41 885v80h451v-80h-179v-469h-94v469h-178zM573 416v549h117l160 -422l162 422h118v-549h-88v399l-151 -399h-78l-151 403v-403h-89z" />
<glyph unicode="&#x25fc;" horiz-adv-x="696" d="M0 0v696h696v-696h-696z" />
<glyph unicode="&#xf700;" horiz-adv-x="735" d="M-12 592q9 101 104 171.5t238 70.5q84 0 151 -27q24 12 42 32t18 42h125q0 -42 -29 -75t-68 -50q121 -97 121 -293q0 -237 -124.5 -358t-325.5 -109l-117 453l-41 63h145l103 -408q109 12 177 107.5t68 251.5q0 126 -66.5 197t-178.5 71q-88 0 -150 -36.5t-80 -102.5 h-112z" />
<glyph unicode="&#xf701;" d="M-831 922v90h563v-90h-563z" />
<glyph unicode="&#xf702;" d="M-831 922v90h448v104h115v-194h-563z" />
<glyph unicode="&#xf703;" d="M-831 922v90h389v12q0 42 33.5 72t84.5 30q50 0 82.5 -30t32.5 -72t-32.5 -72t-82.5 -30h-507zM-375 1024q0 -20 13.5 -32.5t33.5 -12.5q23 0 37.5 12.5t14.5 32.5q0 19 -14.5 31t-37.5 12q-20 0 -33.5 -12t-13.5 -31z" />
<glyph unicode="&#xf704;" d="M-831 922v90h272v104h115v-104h61v104h115v-194h-563z" />
<glyph unicode="&#xf705;" d="M-406 922v194h115v-194h-115z" />
<glyph unicode="&#xf706;" d="M-481 1012v92h69q117 0 117 -92h315v-90h-409v39q0 51 -55 51h-37z" />
<glyph unicode="&#xf707;" d="M-737 922v94q0 65 42.5 100t110.5 35h13l90 -55l88 55h14q68 0 110 -35.5t42 -99.5v-4h245v-90h-340v86q0 55 -51 55h-14l-96 -59l-99 59h-8q-26 0 -39.5 -15.5t-11.5 -39.5v-4h61v-82h-157z" />
<glyph unicode="&#xf708;" d="M-553 1020v86h98v98h115v-98h98v-86h-98v-98h-115v98h-98z" />
<glyph unicode="&#xf709;" d="M-524 922v47q0 65 42.5 102t106.5 37h137v-102h-100q-32 0 -52 -18t-20 -46v-20h-114z" />
<glyph unicode="&#xf70a;" d="M-176 922v194h115v-194h-115z" />
<glyph unicode="&#xf70b;" d="M-383 1012v92h70q116 0 116 -92h244v-90h-338v39q0 51 -55 51h-37z" />
<glyph unicode="&#xf70c;" d="M-649 922v94q0 65 42.5 100t110.5 35h13l90 -55l88 55h14q68 0 110 -35.5t42 -99.5v-4h96v-90h-190v86q0 55 -52 55h-14l-96 -59l-99 59h-8q-26 0 -39.5 -15.5t-11.5 -39.5v-4h61v-82h-157z" />
<glyph unicode="&#xf70d;" d="M-373 1020v86h99v98h114v-98h99v-86h-99v-98h-114v98h-99z" />
<glyph unicode="&#xf70e;" d="M-328 922v47q0 65 43 102t107 37h137v-102h-100q-32 0 -52 -18t-20 -46v-20h-115z" />
<glyph unicode="&#xf70f;" horiz-adv-x="1277" d="M39 600q5 69 56.5 123.5t130 82.5t167.5 28q93 0 168.5 -26.5t125.5 -88t50 -150.5v-323q0 -58 28 -94.5t66.5 -49t88.5 -12.5q36 0 66.5 7.5t57.5 24t42.5 48.5t15.5 76v573h115v-590q0 -67 -27.5 -116.5t-73 -75t-94.5 -37.5t-102 -12t-102 12t-94.5 37.5t-73 75 t-27.5 116.5v328q0 88 -63 131t-169 43q-89 0 -154.5 -34t-74.5 -79q21 -15 30.5 -22.5t23 -25.5t13.5 -35q0 -23 -26.5 -58t-26.5 -63v-312h148v-102h-263v422q0 27 32 58t32 48q0 15 -21.5 33t-43.5 29z" />
<glyph unicode="&#xf710;" d="M-565 922v159h114v-69h469v-90h-583z" />
<glyph unicode="&#xf711;" d="M-440 1020q0 46 32.5 76t83.5 30t84 -30t33 -76t-33 -76.5t-84 -30.5t-83.5 30.5t-32.5 76.5zM-373 1020q0 -19 14.5 -32t34.5 -13t35 13t15 32t-15 32t-35 13t-34.5 -13t-14.5 -32z" />
<glyph unicode="&#xf712;" d="M-805 1049q0 66 54.5 108.5t150.5 42.5h395v-90h-395q-109 0 -109 -61q0 -11 4.5 -21t9.5 -14l5 -4h82l174 73l196 -79v-95l-194 82l-162 -69h-141q-70 42 -70 127z" />
<glyph unicode="&#xf713;" d="M-383 1178v153h115v-153h-115z" />
<glyph unicode="&#xf714;" d="M-539 1260v81h64q104 0 104 -81h219v-82h-303v34q0 48 -49 48h-35z" />
<glyph unicode="&#xf715;" d="M-565 1178v86q0 58 38 89t99 31h12l80 -49l80 49h12q62 0 100 -31.5t38 -88.5v-4h86v-82h-173v77q0 50 -45 50h-14l-86 -54l-88 54h-8q-23 0 -35 -14t-10 -36v-4h55v-73h-141z" />
<glyph unicode="&#xf716;" d="M-461 1255v68h88v78h94v-78h89v-68h-89v-77h-94v77h-88z" />
<glyph unicode="&#xf717;" d="M-467 1114v41q0 59 38.5 93t96.5 34h123v-92h-90q-29 0 -47.5 -16t-18.5 -41v-19h-102z" />
<glyph unicode="&#xf718;" d="M-238 -348h177v-246h-115v156h-62v90z" />
<glyph unicode="&#xf719;" d="M-467 -348h156v-125q0 -53 67 -53q68 0 68 53v125h115v-131q0 -64 -50.5 -99.5t-132.5 -35.5q-86 0 -134 35t-48 100v41h-41v90z" />
<glyph unicode="&#xf71a;" d="M-229 -432q0 35 24.5 59.5t59.5 24.5t59.5 -24.5t24.5 -59.5t-24.5 -59.5t-59.5 -24.5t-59.5 24.5t-24.5 59.5z" />
<glyph unicode="&#xf71d;" horiz-adv-x="1007" />
<glyph unicode="&#xf880;" />
<glyph horiz-adv-x="491" />
<glyph horiz-adv-x="419" d="M-440 1020q0 46 32.5 76t83.5 30t84 -30t33 -76t-33 -76.5t-84 -30.5t-83.5 30.5t-32.5 76.5zM-373 1020q0 -19 14.5 -32t34.5 -13t35 13t15 32t-15 32t-35 13t-34.5 -13t-14.5 -32zM10 713v104q64 13 126 7t111.5 -24.5t80 -60.5t30.5 -102v-637h-114v614 q0 68 -66.5 92.5t-167.5 6.5z" />
<glyph d="M-584 1032q-1 40 24.5 74.5t65.5 54.5q35 21 82 25q-43 21 -43 74q0 41 36 82.5t93 64.5q94 37 281 31v-101q-70 5 -136.5 2t-114.5 -25t-48 -57q0 -14 8.5 -23t28 -12.5t33 -4t40.5 -0.5h11v-95q-97 12 -174.5 -11t-77.5 -67q0 -28 49 -28t117 33l49 -82 q-102 -54 -197 -45q-57 6 -91 37.5t-36 72.5z" />
<glyph />
<glyph d="M-381 952v195h115v-195h-115z" />
<glyph d="M-266 1178v153h114v-153h-114z" />
<glyph d="M-473 1178v153h115v-153h-115z" />
<glyph d="M-819 952v90h583v-90h-583z" />
<glyph d="M-819 952v90h469v105h114v-195h-583z" />
<glyph />
</font>
</defs>
</svg>
